Go Back   Lazydesis > Downloads > Software and Games > Software


Like Tree2Likes
  • 2 Post By arunava02

 
 
LinkBack Thread Tools

  #1   arunava02 is offline
01-24-2009, 10:54 PM
arunava02's Avatar
Senior member
 
Join Date: Sep 2008
Posts: 1,292
Likes Received Likes Received: 324

Creating PROTECTED CD THAT NO ONE CAN BREAK


CCD-Lock v1.75 build 1231 [1.6 MB]
CCD-Lock

is a tool to modify & "protected" CloneCD Audio-CD control files. Several protection mechanisms and three pre-defined
routines can be used to do the job. The protected CD's are unreadable in CD/DVD-ROM drives (also on the Yamaha F1 & Plextor PX2410).

CD-Protector v3.00 -FiNAL- (01-02-2000) [2.0 MB]


CD-Protector
is a CD-R utility that helps you to create your own
copy-protected CD by encrypting files in the DATA track and by using dummy AUDIO tracks.

CloneAudioProtector
v1.1 (23-09-2001) [746 KB]

CloneAudioProtector
is a CD tool which is able to protect audio CDs. CloneCD is used to create a CD-Image which is then modified using the CAP tool. Two types of protections (separate or combined) can be used to protect the CD:
  • SYS Protection
  • Cactus Data Shield
The protection(s) can be added at 30, 60, 90 or 120 seconds before the end of the CD.


CloneAudioProtector v1.0 (04-11-2001) [328 KB]


Easy Audio Lock (EAL) is a CD tool which is able to protect audio CDs.

CloneCD 2.x/3.x is used to create a CD-Image which is then modified using EAL.

The protection is based on the Cactus Data Shield protection which

uses an invalid TOC to make the CD unreadable on CD/DVD-ROM drives.


Freelock alters the layout of a CD image prior to recording, making the resulting copy virtually impossible to duplicate. This prevents most people making copies of your copies.
Freelock runs from a deliberately damaged floppy disk. This damage is all part of the protection process. The disk can be produced by extracting all files from the flock10.zip archive into a directory on your [COLOR=#660000 ! important] [COLOR=#660000 ! important] hard [COLOR=#660000 ! important] drive [/COLOR] [/COLOR] [/COLOR] [IMG] [REDACTED] [/IMG]
, then running INSTALL.BAT .

:nets:
WinLock (31-12-1999) [1.5 MB]
WinLock is a CD-R utility that helps you to create your own copy-protected CD by
adding 3 dummy tracks to an existing CDRWIN/DAO Cue-Sheet.
It creates a dummy file which then is added as an Audio, Mode-1 Data and a

Mode-2 Data track.
[LINKS] [REDACTED] [/LINKS]


General Tips
Here's an example to copy-protect a Data CD by adding a dummy Data track so that the backup disc will have 2 Data tracks (which is in fact an Illegal Table of Contents). Example using Crash Bandicoot 3 [ PAL ] ( PSX ):
  • Get CDRWin 3.6b (or higher) and create an image of the CD (1 Mode2 data track).
    The CUE-file should look something like this:
    FILE "C:\TEMP\CRASH3.BIN" BINARY
    TRACK 01 MODE2/2352
    INDEX 01 00:00:00
  • Go to CDRWin -> Record Disc -> Load Cuesheet and read the Total Disc Time (should be 32:36:12).
  • Now add another (dummy) data track at the end of the cue file by using notepad and set it to the Total Disc Time minus 2 seconds(!). C:\TEMP\CRASH3.BIN" BINARY
    TRACK 01 MODE2/2352
    INDEX 01 00:00:00
    TRACK 02 MODE2/2352
    INDEX 01 32:34:12 <-- Total Disc Time (32:36:12) minus 2 seconds [/COLOR] [/SIZE] [/FONT]
  • Look at CDRWin -> Record Disc -> Disc Layout . .. and you will see the added track starts at 32:36:12 (not 32:34:12). The time is equal to the Lead
    Out starttime, so it should not come in range of the data track.
  • Now record disc with CDRWin and you will get a CD with 2 data tracks.
The Crash Bandicoot 3 game runs fine on a Playstation.
Nero Burning Rom is the only program that can make a copy of this CD using the CD-Recorder as CD-Reader. It can't be copied on a CD-ROM reader (at least not on a Plextor PX-20TS)!
This trick should also works with Mixed Mode and Audio CD's.
To create an Mixed-Mode CD with an Illegal TOC subtract 4 seconds from the total time instead of the 2 seconds (just subtract seconds until CDRWin accepts the CUE-Sheet). Keep in mind that in CDRWin the total time of the new track should be at least the lead-out time.
USED HARD- AND SOFTWARE:
Second Process
Here's an another example to copy-protect a Data CD by adding a dummy Data track so that the backup disc will have 2 Data tracks. If the second track has a different CD "mode" than the first then the CD WON'T BE COPIED AT ALL. Tried it on Heroes of Might & Magic 3 and NERO, CDRWin and EasyCD are not able to copy it.
Use the following CDRWin CUE-Sheet to write the CD.
[HMM3.BIN" BINARY
TRACK 01 MODE1/2352
INDEX 01 00:00:00
TRACK 02 MODE2/2352
INDEX 01 73:30:45 [/COLOR] [/SIZE] [/FONT]
m:
mrnoname and scanme like this.
__________________

Advertisement

Similar Threads
Thread Thread Starter Forum Replies Last Post
S/W To copy Protected DATA CD nithu Technology Requests 0 06-11-2009 11:41 AM
hacking password protected site dheeraj508 Tips n Tweaks 0 03-14-2009 10:49 PM
Copy protected movie DVD Alv00 Software 2 02-19-2009 03:43 AM

 


Tags
break, creating, protected

Thread Tools



All times are GMT -4. The time now is 02:49 PM.

Contact Us | Home  |  Archive  |  Forum Rules  |  DMCA/Disclaimer  |  Privacy Statement  |  Terms of Service  |  Top
Powered by vBulletin® Copyright ©2000 - 2014, Jelsoft Enterprises Ltd.
SEO by vBSEO ©2011, Crawlability, Inc.